۩ ‼ Вы находитесь на Бесплатном торрент-трекере TORRNADA.com ۩ Зарегистрируйтесь для получения полного доступа ко всем функциям сайта ! ۩ После регистрации подпишитесь на нашу рассылку в своём профиле ۩
Auto Web Pinger

 

[Цитировать]

Ветер и лев / The Wind and the Lion (1975) HDRip- Производство: США
Жанр: Приключения, боевик, драма, исторический
Режиссер: Джон Милиус
Актеры: Шон Коннери, Кэндис Берген, Брайан Кит, Джон Хьюстон, Джеффри Льюис, Стив Кэнэли, Владек Шейбал, Надим Савалха, Рой Дженсон, Дебора Бакстер, Ширли Ротман, Джек Кули, Крис Аллер, Саймон Харрисон, Полли Готтесман, Антуан Сент-Джон, Альдо Самбрелл, Одри Сан Феликс, Джон Милиус
Описание:
Начало 1900-х. Американка Эден и двое ее детей были похищены в Морокко лидером арабских мятежников Ахмедом Раисули. Конфликт мог привести к военному вмешательству, однако вскоре отношения Эден и Раисули сильно изменились. Спустя некоторое время, после освобождения Эден, мятежник сам стал пленником немецких захватчиков. С помощью Эден и благодаря содействию президента Теодора Рузвельта Раисули удалось бежать…

Продолжительность: 01:59:14
Качество видео: HDRip
Перевод: Профессиональный многоголосый
Видео: XviD, 720x304, 1547 Кбит/с
Аудио: AC3, 2 ch, 192 Кбит/с

MediaInfo:

Общее
Полное имя : C:\NNM\Ветер и лев\Veter i lev 1975 HDRip.avi
Формат : AVI
Формат/Информация : Audio Video Interleave
Размер файла : 1,46 Гбайт
Продолжительность : 1 ч. 59 м.
Общий поток : 1748 Кбит/сек
Режиссёр : bm11
Программа кодирования : VirtualDubMod 1.5.10.3
Видео
Идентификатор : 0
Формат : MPEG-4 Visual
Профиль формата : Advanced Simple@L5
Параметр BVOP формата : 1
Параметр QPel формата : Нет
Параметр GMC формата : Без точки перехода
Параметр матрицы формата : Выборочная
Идентификатор кодека : XVID
Идентификатор кодека/Подсказка : XviD
Продолжительность : 1 ч. 59 м.
Битрейт : 1547 Кбит/сек
Ширина : 720 пикселей
Высота : 304 пикселя
Соотношение сторон : 2,35:1
Частота кадров : 23,976 кадра/сек
Цветовое пространство : YUV
Субдискретизация насыщенности : 4:2:0
Битовая глубина : 8 бит
Тип развёртки : Прогрессивная
Метод сжатия : С потерями
Бит/(Пиксели*Кадры) : 0.295
Размер потока : 1,29 Гбайт (88%)
Библиотека кодирования : XviD 73
Аудио
Идентификатор : 1
Формат : AC-3
Формат/Информация : Audio Coding 3
Расширение режима : CM (complete main)
Идентификатор кодека : 2000
Продолжительность : 1 ч. 59 м.
Вид битрейта : Постоянный
Битрейт : 192 Кбит/сек
Каналы : 2 канала
Расположение каналов : Front: L R
Частота : 48,0 КГц
Битовая глубина : 16 бит
Метод сжатия : С потерями
Задержка видео : 18 мс.
Размер потока : 164 Мбайт (11%)
Выравнивание : Разделение по промежуткам
Продолжительность промежутка : 42 мс. (1,00 видеокадр)
Время предзагрузки промежутка : 500 мс.
Скриншоты: Не жилим спасибо. Не забываем голосовать за трекер!!!


Показать сообщения:    

Текущее время: 20-Май 16:18

Часовой пояс: UTC + 3


Вы не можете начинать темы
Вы не можете отвечать на сообщения
Вы не можете редактировать свои сообщения
Вы не можете удалять свои сообщения
Вы не можете голосовать в опросах
Вы не можете прикреплять файлы к сообщениям
Вы не можете скачивать файлы

!ВНИМАНИЕ!
Сайт не предоставляет электронные версии произведений, а занимается лишь коллекционированием и каталогизацией ссылок, присылаемых и публикуемых на форуме нашими читателями. Если вы являетесь правообладателем какого-либо представленного материала и не желаете, чтобы ссылка на него находилась в нашем каталоге, свяжитесь с нами, и мы незамедлительно удалим ее. Файлы для обмена на трекере предоставлены пользователями сайта, и администрация не несет ответственности за их содержание. Просьба не заливать файлы, защищенные авторскими правами, а также файлы нелегального содержания!