۩ ‼ Вы находитесь на Бесплатном торрент-трекере TORRNADA.com ۩ Зарегистрируйтесь для получения полного доступа ко всем функциям сайта ! ۩ После регистрации подпишитесь на нашу рассылку в своём профиле ۩
Auto Web Pinger

 

[Цитировать]

Название: Киборг 2: Стеклянная тень
Оригинальное название: Cyborg 2
Год выпуска: 1993
Жанр: Фантастика, боевик, постапокалипсис
Выпущено: США, Freedom Filmworks International, Trimark Pictures
Режиссер: Майкл Шродер
В ролях: Анджелина Джоли, Элиас Котеас, Джек Пэланс, Билли Драго, Карен Шеперд, Аллен Гарфилд, Рик Янг, Рени Гриффин, Свен-Оле Торсен, Трейси Уолтер, Джим Янгс, Роберт Драйер, Джон Дёрбин, Патрик О'Коннелл, Шерил Мэри Льюис, Лори Мишель, Элизабет Санг, Мэтт Демеритт, Ален Сильвер, Гален Юэнь, Уильям Колон, Ирвинг Боньос, Дэвид Шредер, Рик Хилл, Лайнес Хаффман
О фильме: 2074 год. Земля охвачена борьбой крупнейших корпораций. Кобайяши Электроникс (Япония) и Пинуил Роботикс (США) сражаются за контроль над индустрией производства программного обеспечения и производства киборгов. Киборги заменили людей во всех отношениях: от солдата на поле боя до проститутки в борделе. В американской корпорации создан киборг в виде красивой женщины, в тело которой была введена мощнейшая жидкая взрывчатка. Эта «киборгша» должна была пойти на переговоры с руководством японской корпорации и там взорваться. Все, наверное, так и произошло бы, но красоткой увлекся ее учитель каратэ и закрутилось-понеслось...
Перевод: Профессиональный многоголосый
Качество: WEB-DLRip (720p)
Видео: AVC, 7916 Кбит/с, 23,962 fps
Аудио: Русский AC3, 6 ch, 448 Кбит/с
Размер: 5,44 Gb
Продолжительность: 01:31:13
Формат 3D: Half SideBySide / Горизонтальная анаморфная стереопара ("no ghosts")

медиа-инфо

Полное имя : D:\Раздача\Cyborg 2[exxxtra.torrent3d.ru].mkv
Формат : Matroska
Версия формата : Version 4 / Version 2
Размер файла : 5,44 Гбайт
Продолжительность : 1 ч. 31 м. 13 с.
Общий поток : 8534 Кбит/сек
Дата кодирования : UTC 2015-07-03
Программа кодирования : mkvmerge v7.1.0 ('Good Love') 64bit
Библиотека кодирования : libebml v1.3.0 + libmatroska v1.4.1
Видео
Идентификатор : 1
Формат : AVC
Формат/Информация : Advanced Video Codec
Профиль формата : Main@L1.3
Параметр CABAC формата : Да
Параметр ReFrames формата : 2 кадра
Идентификатор кодека : V_MPEG4/ISO/AVC
Продолжительность : 1 ч. 31 м. 13 с.
Битрейт : 7916 Кбит/сек
Ширина : 1280 пикселей
Высота : 720 пикселей
Соотношение сторон : 16:9
Режим частоты кадров : Постоянный
Частота кадров : 23,962 кадра/сек
Цветовое пространство : YUV
Субдискретизация насыщенности : 4:2:0
Битовая глубина : 8 бит
Тип развёртки : Прогрессивная
Бит/(Пиксели*Кадры) : 0.358
Размер потока : 5,04 Гбайт (93%)
Заголовок : Rip_by _SOLdAt_720p
Язык : Russian
Default : Да
Аудио
Идентификатор : 2
Формат : AC-3
Формат/Информация : Audio Coding 3
Расширение режима : CM (complete main)
Параметр Endianness формата : Big
Идентификатор кодека : A_AC3
Продолжительность : 1 ч. 31 м. 13 с.
Вид битрейта : Постоянный
Битрейт : 448 Кбит/сек
Каналы : 6 каналов
Расположение каналов : Front: L C R, Side: L R, LFE
Частота : 48,0 КГц
Битовая глубина : 16 бит
Размер потока : 292 Мбайт (5%)
Заголовок : 6 ch, 448 kb/s
Язык : Russian
Default : Да
Скриншоты:
Не жилим спасибо. Не забываем голосовать за трекер!!!


Показать сообщения:    

Текущее время: 20-Май 15:39

Часовой пояс: UTC + 3


Вы не можете начинать темы
Вы не можете отвечать на сообщения
Вы не можете редактировать свои сообщения
Вы не можете удалять свои сообщения
Вы не можете голосовать в опросах
Вы не можете прикреплять файлы к сообщениям
Вы не можете скачивать файлы

!ВНИМАНИЕ!
Сайт не предоставляет электронные версии произведений, а занимается лишь коллекционированием и каталогизацией ссылок, присылаемых и публикуемых на форуме нашими читателями. Если вы являетесь правообладателем какого-либо представленного материала и не желаете, чтобы ссылка на него находилась в нашем каталоге, свяжитесь с нами, и мы незамедлительно удалим ее. Файлы для обмена на трекере предоставлены пользователями сайта, и администрация не несет ответственности за их содержание. Просьба не заливать файлы, защищенные авторскими правами, а также файлы нелегального содержания!