۩ ‼ Вы находитесь на Бесплатном торрент-трекере TORRNADA.com ۩ Зарегистрируйтесь для получения полного доступа ко всем функциям сайта ! ۩ После регистрации подпишитесь на нашу рассылку в своём профиле ۩
Auto Web Pinger

 

[Цитировать]

Информация о фильме
Название: Шагреневая кожа
Оригинальное название: La peau de chagrin
Год выхода: 2010
Жанр: Драма, Экранизация, Триллер
Режиссер: Ален Берлинер
В ролях: Тома Куман, Аннабелль Эттманн, Жюльен Оноре, Милен Джампаной, Жан-Пьер Марьель, Aymeric Cormerais, Henry Courseaux, Louis-Do de Lencquesaing, Anne Kreis, Жан-Пол Дюбуа и др.
О фильме:
Рафаэль де Валентен молод, честолюбив и беден. Он мечтает разбогатеть и прославиться, опубликовав философское эссе о великих мыслителях. Однако издатель возвращает ему рукопись. Он влюбляется в светскую львицу Феодору — холодная и расчетливая красавица отвергает его. Проиграв в казино последние деньги, он в отчаянии решает покончить с собой.
Но судьбе было угодно, чтобы в этот момент он стал обладателем шагреневой кожи, магического талисмана, который осуществляет любое желание человека, но взамен сокращает отведенное тому время на земле. Заключив роковую сделку, Рафаэль получает все и сразу: солидную должность, огромное наследство, толпы поклонников его писательского дара, любовь женщин, пиры, оргии, вакханалии…

Страна: Франция
Продолжительность: 01:36:31
Перевод: Профессиональный (многоголосый закадровый)
Файл
Кодек: h.264
Качество: DVDRip-AVC
Видео: MPEG-4, 720x426 @ 768x426, 25.000 fps ~1770 kbps
Звук:
1) 48 KHz, AC3, 2 ch ~192 Kbps - MVO
2) 48 KHz, AC3, 2 ch ~192 Kbps - Original
Субтитры: Русские
Media Info:

Скрытый текст

General
Unique ID : 192905471262342647003263144907300100441 (0x91203E0AE9DF114A910C1437069F5959)
Format : Matroska
Format version : Version 4 / Version 2
File size : 1.46 GiB
Duration : 1h 36mn
Overall bit rate : 2 167 Kbps
Encoded date : UTC 2015-07-02 14:34:06
Writing application : mkvmerge v8.1.0 ('Psychedelic Postcard') 64bit
Writing library : Lavf55.12.0
Attachements : Cover.JPG
Video
ID : 1
Format : AVC
Format/Info : Advanced Video Codec
Format profile : High@L4.1
Format settings, CABAC : Yes
Format settings, ReFrames : 10 frames
Codec ID : V_MPEG4/ISO/AVC
Duration : 1h 36mn
Bit rate : 1 770 Kbps
Width : 720 pixels
Height : 426 pixels
Display aspect ratio : 16:9
Frame rate mode : Constant
Frame rate : 25.000 fps
Color space : YUV
Chroma subsampling : 4:2:0
Bit depth : 8 bits
Scan type : Progressive
Bits/(Pixel*Frame) : 0.231
Stream size : 1.17 GiB (80%)
Title : MPEG-4, 720x426, 25.000 fps ~1770 kbps
Writing library : x264 core 142 r2479 dd79a61
Encoding settings : cabac=1 / ref=10 / deblock=1:-2:-2 / analyse=0x3:0x113 / me=umh / subme=10 / psy=1 / psy_rd=1.00:0.20 / mixed_ref=1 / me_range=24 / chroma_me=1 / trellis=2 / 8x8dct=1 / cqm=0 / deadzone=21,11 / fast_pskip=0 / chroma_qp_offset=-3 / threads=6 / lookahead_threads=1 / sliced_threads=0 / nr=0 / decimate=1 / interlaced=0 / bluray_compat=0 / constrained_intra=0 / bframes=12 / b_pyramid=2 / b_adapt=2 / b_bias=0 / direct=3 / weightb=1 / open_gop=0 / weightp=2 / keyint=250 / keyint_min=25 / scenecut=40 / intra_refresh=0 / rc_lookahead=60 / rc=2pass / mbtree=0 / bitrate=1770 / ratetol=1.0 / qcomp=0.60 / qpmin=0 / qpmax=69 / qpstep=4 / cplxblur=20.0 / qblur=0.5 / vbv_maxrate=62500 / vbv_bufsize=78125 / nal_hrd=none / filler=0 / ip_ratio=1.40 / pb_ratio=1.30 / aq=1:1.00
Language : French
Default : Yes
Forced : No
Color range : Limited
Color primaries : BT.601 PAL
Transfer characteristics : BT.709
Matrix coefficients : BT.601
DURATION : 01:36:31.000000000
NUMBER_OF_FRAMES : 144775
NUMBER_OF_BYTES : 1280626936
_STATISTICS_WRITING_APP : mkvmerge v8.1.0 ('Psychedelic Postcard') 64bit
_STATISTICS_WRITING_DATE_UT : 2015-07-02 14:34:06
_STATISTICS_TAGS : BPS DURATION NUMBER_OF_FRAMES NUMBER_OF_BYTES
Audio #1
ID : 2
Format : AC-3
Format/Info : Audio Coding 3
Mode extension : CM (complete main)
Format settings, Endianness : Big
Codec ID : A_AC3
Duration : 1h 36mn
Bit rate mode : Constant
Bit rate : 192 Kbps
Channel(s) : 2 channels
Channel positions : Front: L R
Sampling rate : 48.0 KHz
Compression mode : Lossy
Stream size : 133 MiB (9%)
Title : 48 KHz, AC3, 2 ch ~192 Kbps - MVO
Language : Russian
Default : Yes
Forced : No
DURATION : 01:36:30.944000000
NUMBER_OF_FRAMES : 180967
NUMBER_OF_BYTES : 138982656
_STATISTICS_WRITING_APP : mkvmerge v8.1.0 ('Psychedelic Postcard') 64bit
_STATISTICS_WRITING_DATE_UT : 2015-07-02 14:34:06
_STATISTICS_TAGS : BPS DURATION NUMBER_OF_FRAMES NUMBER_OF_BYTES
Audio #2
ID : 3
Format : AC-3
Format/Info : Audio Coding 3
Mode extension : CM (complete main)
Format settings, Endianness : Big
Codec ID : A_AC3
Duration : 1h 36mn
Bit rate mode : Constant
Bit rate : 192 Kbps
Channel(s) : 2 channels
Channel positions : Front: L R
Sampling rate : 48.0 KHz
Compression mode : Lossy
Stream size : 133 MiB (9%)
Title : 48 KHz, AC3, 2 ch ~192 Kbps - Original
Language : French
Default : No
Forced : No
DURATION : 01:36:30.944000000
NUMBER_OF_FRAMES : 180967
NUMBER_OF_BYTES : 138982656
_STATISTICS_WRITING_APP : mkvmerge v8.1.0 ('Psychedelic Postcard') 64bit
_STATISTICS_WRITING_DATE_UT : 2015-07-02 14:34:06
_STATISTICS_TAGS : BPS DURATION NUMBER_OF_FRAMES NUMBER_OF_BYTES
Text
ID : 4
Format : VobSub
Muxing mode : zlib
Codec ID : S_VOBSUB
Codec ID/Info : Picture based subtitle format used on DVDs
Language : Russian
Default : No
Forced : No
DURATION : 01:31:08.235000000
NUMBER_OF_FRAMES : 977
NUMBER_OF_BYTES : 1296280
_STATISTICS_WRITING_APP : mkvmerge v8.1.0 ('Psychedelic Postcard') 64bit
_STATISTICS_WRITING_DATE_UT : 2015-07-02 14:34:06
_STATISTICS_TAGS : BPS DURATION NUMBER_OF_FRAMES NUMBER_OF_BYTES
Menu
00:00:00.000 : :Chapter 1
00:04:04.560 : :Chapter 2
00:10:02.000 : :Chapter 3
00:16:26.160 : :Chapter 4
00:20:40.720 : :Chapter 5
00:24:14.640 : :Chapter 6
00:28:13.680 : :Chapter 7
00:38:03.280 : :Chapter 8
00:44:21.040 : :Chapter 9
00:51:41.040 : :Chapter 10
00:58:39.120 : :Chapter 11
01:05:30.960 : :Chapter 12
01:10:03.600 : :Chapter 13
01:16:22.160 : :Chapter 14
01:26:32.880 : :Chapter 15
01:33:10.800 : :Chapter 16

Скриншоты

Не жилим спасибо. Не забываем голосовать за трекер!!!


Показать сообщения:    

Текущее время: 24-Май 08:10

Часовой пояс: UTC + 3


Вы не можете начинать темы
Вы не можете отвечать на сообщения
Вы не можете редактировать свои сообщения
Вы не можете удалять свои сообщения
Вы не можете голосовать в опросах
Вы не можете прикреплять файлы к сообщениям
Вы не можете скачивать файлы

!ВНИМАНИЕ!
Сайт не предоставляет электронные версии произведений, а занимается лишь коллекционированием и каталогизацией ссылок, присылаемых и публикуемых на форуме нашими читателями. Если вы являетесь правообладателем какого-либо представленного материала и не желаете, чтобы ссылка на него находилась в нашем каталоге, свяжитесь с нами, и мы незамедлительно удалим ее. Файлы для обмена на трекере предоставлены пользователями сайта, и администрация не несет ответственности за их содержание. Просьба не заливать файлы, защищенные авторскими правами, а также файлы нелегального содержания!