۩ ‼ Вы находитесь на Бесплатном торрент-трекере TORRNADA.com ۩ Зарегистрируйтесь для получения полного доступа ко всем функциям сайта ! ۩ После регистрации подпишитесь на нашу рассылку в своём профиле ۩
Auto Web Pinger

 

[Цитировать]

BBC: Ганг / Ganges Название: BBC: Ганг
Оригинальное название: Ganges
Год выпуска: 2007
Жанр: Документальный, природа, путешествие, флора, фауна
Режиссер: Том Хью-Джонс
В ролях: Судха Бхучар
О фильме: Нигде на Земле мир природы и мир духов не сплетены воедино так, как в Индии. Здесь воздух и огонь, животных и растения, горы и реки почитают как богов. И одно из самых могущественных божеств — это река Ганг. Тысячелетиями она приносила жизнь этой выжженной земле и питала тела и души бесчисленных миллионов существ, живущих на её берегах и поклонявшихся ей. Ганг по праву считается самой экстраординарной рекой в мире. Начиная свое путешествие в Гималаях, неспешно проходя через лихорадочные города навстречу изобилующей дельте, где река встречает море, мы увидим этот яркий и красочный мир — мир Ганга, сформировавшего дикую природу, культуру и верования целой страны.
Выпущено: Великобритания, Франция, BBC Television Centre, France 3, Travel Channel
Продолжительность: 3 x ~ 00:49:00
Перевод: Профессиональный одноголосый
Субтитры: Русские
Качество: BDRip (720p)
Формат: mkv
Видео: MPEG-4 AVC, ~ 3916 Кбит/с, 1280x720
Аудио: AC3, 2 ch, 256 Кбит/с

MI

General
Unique ID : 230220486583207102464923455294018026064 (0xAD32DA5724A95720B099B6AF9DE5FA50)
Complete name : \\DLINK-E826FB\Volume_1\Transmission\Gang.2008.x264.BDRip.720p.mkv
Format : Matroska
Format version : Version 2
File size : 4.37 GiB
Duration : 2h 27mn
Overall bit rate : 4 258 Kbps
Encoded date : UTC 2009-10-26 21:47:33
Writing application : mkvmerge v2.9.7 ('Tenderness') built on Jul 1 2009 18:43:35
Writing library : libebml v0.7.7 + libmatroska v0.8.1
Video
ID : 1
Format : AVC
Format/Info : Advanced Video Codec
Format profile : High@L5.0
Format settings, CABAC : Yes
Format settings, ReFrames : 10 frames
Codec ID : V_MPEG4/ISO/AVC
Duration : 2h 27mn
Bit rate : 4 000 Kbps
Width : 1 280 pixels
Height : 720 pixels
Display aspect ratio : 16:9
Frame rate mode : Constant
Frame rate : 29.970 fps
Color space : YUV
Chroma subsampling : 4:2:0
Bit depth : 8 bits
Scan type : Progressive
Bits/(Pixel*Frame) : 0.145
Stream size : 4.02 GiB (92%)
Title : Ganges
Writing library : x264 core 77 r1281 3836218
Encoding settings : cabac=1 / ref=10 / deblock=1:0:0 / analyse=0x3:0x133 / me=umh / subme=7 / psy=1 / psy_rd=1.4:0.6 / mixed_ref=1 / me_range=16 / chroma_me=1 / trellis=2 / 8x8dct=1 / cqm=0 / deadzone=21,11 / chroma_qp_offset=-4 / threads=3 / nr=0 / decimate=1 / mbaff=0 / constrained_intra=0 / bframes=10 / b_pyramid=1 / b_adapt=2 / b_bias=0 / direct=1 / wpredb=1 / keyint=250 / keyint_min=25 / scenecut=40 / rc_lookahead=0 / rc=2pass / mbtree=0 / bitrate=4000 / ratetol=1.0 / qcomp=0.60 / qpmin=10 / qpmax=51 / qpstep=4 / cplxblur=20.0 / qblur=0.5 / vbv_maxrate=50000 / vbv_bufsize=50000 / ip_ratio=1.40 / pb_ratio=1.30 / aq=1:0.80
Language : English
Default : Yes
Forced : No
Audio
ID : 2
Format : AC-3
Format/Info : Audio Coding 3
Mode extension : CM (complete main)
Format settings, Endianness : Big
Codec ID : A_AC3
Duration : 2h 27mn
Bit rate mode : Constant
Bit rate : 256 Kbps
Channel(s) : 2 channels
Channel positions : Front: L R
Sampling rate : 48.0 KHz
Bit depth : 16 bits
Compression mode : Lossy
Stream size : 269 MiB (6%)
Title : Russian audio
Language : Russian
Default : Yes
Forced : No
Text
ID : 3
Format : UTF-8
Codec ID : S_TEXT/UTF8
Codec ID/Info : UTF-8 Plain Text
Title : Russian subtitle
Language : Russian
Default : Yes
Forced : No
Menu
00:00:00.000 : en:00:00:00.000
00:07:16.803 : en:00:07:16.803
00:12:20.073 : en:00:12:20.073
00:19:17.823 : en:00:19:17.823
00:26:38.363 : en:00:26:38.363
00:33:39.351 : en:00:33:39.351
00:43:47.758 : en:00:43:47.758
00:48:20.631 : en:00:48:20.631
00:49:01.739 : en:00:49:01.739
00:49:01.939 : en:00:49:01.939
00:55:33.363 : en:00:55:33.363
01:02:27.444 : en:01:02:27.444
01:08:43.553 : en:01:08:43.553
01:15:35.664 : en:01:15:35.664
01:22:38.387 : en:01:22:38.387
01:32:42.724 : en:01:32:42.724
01:37:26.974 : en:01:37:26.974
01:38:00.742 : en:01:38:00.742
01:38:00.942 : en:01:38:00.942
01:43:26.734 : en:01:43:26.734
01:51:02.723 : en:01:51:02.723
01:59:09.809 : en:01:59:09.809
02:04:08.174 : en:02:04:08.174
02:10:47.707 : en:02:10:47.707
02:20:32.691 : en:02:20:32.691
02:26:27.212 : en:02:26:27.212


Показать сообщения:    

Текущее время: 26-Апр 10:46

Часовой пояс: UTC + 3


Вы не можете начинать темы
Вы не можете отвечать на сообщения
Вы не можете редактировать свои сообщения
Вы не можете удалять свои сообщения
Вы не можете голосовать в опросах
Вы не можете прикреплять файлы к сообщениям
Вы не можете скачивать файлы

!ВНИМАНИЕ!
Сайт не предоставляет электронные версии произведений, а занимается лишь коллекционированием и каталогизацией ссылок, присылаемых и публикуемых на форуме нашими читателями. Если вы являетесь правообладателем какого-либо представленного материала и не желаете, чтобы ссылка на него находилась в нашем каталоге, свяжитесь с нами, и мы незамедлительно удалим ее. Файлы для обмена на трекере предоставлены пользователями сайта, и администрация не несет ответственности за их содержание. Просьба не заливать файлы, защищенные авторскими правами, а также файлы нелегального содержания!