Статистика раздачи | Обновить пиров
Буду качать: [ 1 ]
 
   
 
 

[Цитировать]

Тест на беременность / Профессия - акушер Название:Тест на беременность / Профессия - акушер
Год выпуска: 2014
Жанр: мелодрама
Режиссёр: Михаил Вайнберг, Владимир Шевельков
В ролях: Светлана Иванова, Кирилл Гребенщиков, Данила Дунаев, Александр Яцко, Лянка Грыу, Анна Каменкова, Сергей Мигицко, Артур Ваха, Татьяна Рассказова, Григорий Зельцер, Андрей Полищук, Анна Пескова, Кирилл Варакса, Александр Нестеров, Стелла Ильницкая, Маргарита Адаева, Антон Багров, Андрей Родимов, Лариса Климова, Наталья Щербакова, Валентин Кузнецов, Наталья Третьякова, Виталий Кононов, Геннадий Смирнов, Оксана Сурнина, Анастасия Дюкова, Владимир Постников, Мария Капустинская, Ольга Белинская, Инна Степанова, Юлия Шахмуратова, Анна Демидова, Ирина Ворон
Описание: В экспериментальный научно-медицинский центр приходит новая заведующая акушерским отделением молодая и талантливая Наталья Бахметьева. В первый же день работы она вызывает бурю эмоций у своих новых коллег, восхищая их своим бесспорным профессионализмом и возмущая жестким характером. Наташа не придает значения мгновенно появившимся вокруг нее поклонникам и завистникам. Независимая и замкнутая, она полагается только на себя. Такой образ жизни стал следствием ее многолетнего тайного романа с Юрием Колмогоровым, крупным чиновником, который когда-то был её научным руководителем в институте. Осознав, что Юрий никогда не уйдёт из семьи, Наташа порывает с ним, переезжает из Москвы в Питер и устраивается на новую работу. Но судьба ставит Наташу перед тяжёлым выбором, словно испытывая ее на прочность...
Производство: Всемирные Русские Студии
Продолжительность: 00:51:00
Качество: HDTVRip
Формат: AVI
Видео кодек: XviD
Аудио кодек: AC3
Видео: 720x384 (1.88:1), 25 fps, XviD build 73 ~1799 kbps avg, 0.26 bit/pixel
Аудио: 48 kHz, AC3 Dolby Digital, 2/0 (L,R) ch, ~192 kbps

MI

Общее
Полное имя : H:\Тест.на.беременность.2014.hdtvrip_[teko]\s01e01.avi
Формат : AVI
Формат/Информация : Audio Video Interleave
Размер файла : 733 Мбайт
Продолжительность : 51 м.
Общий поток : 2001 Кбит/сек
Программа кодирования : VirtualDubMod 1.5.10.3 | www.virtualdub-fr.org || (build 2550/release)
Библиотека кодирования : VirtualDubMod build 2550/release
Видео
Идентификатор : 0
Формат : MPEG-4 Visual
Профиль формата : Advanced [email protected]
Параметр BVOP формата : 2
Параметр QPel формата : Нет
Параметр GMC формата : Без точки перехода
Параметр матрицы формата : Выборочная
Идентификатор кодека : XVID
Идентификатор кодека/Подсказка : XviD
Продолжительность : 51 м.
Битрейт : 1800 Кбит/сек
Ширина : 720 пикселей
Высота : 384 пикселя
Соотношение сторон : 1,85:1
Частота кадров : 25,000 кадров/сек
Цветовое пространство : YUV
Субдискретизация насыщенности : 4:2:0
Битовая глубина : 8 бит
Тип развёртки : Прогрессивная
Метод сжатия : С потерями
Бит/(Пиксели*Кадры) : 0.260
Размер потока : 659 Мбайт (90%)
Библиотека кодирования : XviD 73
Аудио
Идентификатор : 1
Формат : AC-3
Формат/Информация : Audio Coding 3
Расширение режима : CM (complete main)
Параметр Endianness формата : Big
Идентификатор кодека : 2000
Продолжительность : 51 м.
Вид битрейта : Постоянный
Битрейт : 192 Кбит/сек
Каналы : 2 канала
Расположение каналов : Front: L R
Частота : 48,0 КГц
Битовая глубина : 16 бит
Метод сжатия : С потерями
Размер потока : 70,3 Мбайт (10%)
Выравнивание : Разделение по промежуткам
Продолжительность промежутка : 40 мс. (1,00 видеокадр)
Время предзагрузки промежутка : 500 мс.


Показать сообщения:    

Текущее время: 22-Сен 07:30

Часовой пояс: UTC + 3


Вы не можете начинать темы
Вы не можете отвечать на сообщения
Вы не можете редактировать свои сообщения
Вы не можете удалять свои сообщения
Вы не можете голосовать в опросах
Вы не можете прикреплять файлы к сообщениям
Вы не можете скачивать файлы

!ВНИМАНИЕ!
Сайт не предоставляет электронные версии произведений, а занимается лишь коллекционированием и каталогизацией ссылок, присылаемых и публикуемых на форуме нашими читателями. Если вы являетесь правообладателем какого-либо представленного материала и не желаете, чтобы ссылка на него находилась в нашем каталоге, свяжитесь с нами, и мы незамедлительно удалим ее. Файлы для обмена на трекере предоставлены пользователями сайта, и администрация не несет ответственности за их содержание. Просьба не заливать файлы, защищенные авторскими правами, а также файлы нелегального содержания!